Интересные релизы SACD

BAMF

Аудиоанатом
Член команды
#1
Concord Jazz - Super Audio CD Sampler, Vol. 1 - 3813497



Concord Jazz - Super Audio CD Sampler, Vol. 2 - 3823433

 

BAMF

Аудиоанатом
Член команды
#2
2xHD - Audiophile Speaker Set-Up - 5546107



Данный диск интересен тем, что треки в нем представленны в трех видах:
DR13 - PCM 96/24
DR13 - PCM 192/24
DR13 - DSD 128
и у вас есть уникальная возможность сравнить эти форматы. Также особенно интереными кажутся дорожки с масимальным динамическим диапазоном:
DR12 -7.89 dB -22.89 dB 0:39 32-Extreme Dynamics
DR15 -0.06 dB -22.05 dB 2:39 33-Extreme Dynamics: Percussion 1
DR12 -0.08 dB -21.10 dB 1:05 34-Extreme Dynamics: World Music 1
DR10 -1.51 dB -15.36 dB 1:02 35-Extreme Dynamics: World Music 2
DR14 -0.24 dB -19.13 dB 1:47 36-Extreme Dynamics: Percussion 2
DR12 -0.04 dB -17.57 dB 1:09 37-Extreme Dynamics: Percussion 3
DR12 -13.58 dB -39.01 dB 0:41 38-Extreme Dynamics: Percussion 4
DR17 -3.98 dB -26.19 dB 1:39 39-Extreme Dynamics: Percussion 5
DR12 -1.64 dB -17.58 dB 1:05 40-Extreme Dynamics: Percussion 6
DR13 -0.07 dB -15.08 dB 1:17 41-Extreme Dynamics: Percussion 7
которые могут стать настоящим испытанием для вашей системы.

2xHD - Audiophile Hi-Res System Test - 5567673

 

BAMF

Аудиоанатом
Член команды
#5
Оцифровка мастерлент любимой многими команды.

Dire Straits – Dire Straits - 3682942



Dire Straits – Communiqué - 4091524



Dire Straits - Making Movies - 4096177



Dire Straits - Love Over Gold - 3923742



Dire Straits – Brothers In Arms - 4789604



Dire Straits - Alchemy: Dire Straits Live - 4100547


Великолепное, живое звучание!
 

BAMF

Аудиоанатом
Член команды
#7
Depeche Mode - SACD Anthology - 3741905



A must have для всех поклонников группы!
 
Вверх